Get Off of My Way
MAN WITH A MISSON

EXTREME

Level: 9
BPM: 135
Notes: 640

1
口口口口 |----|
口口口口 |----|
口口口口 |----|
口口口口 |----|
2
②②口口 |①---|
口口口口 |②---|
口口口①
口口口①

口⑦③口
⑦口⑥口
口口④口 |③④-⑤|
口⑤口口 |-⑥⑦-|
3
②口③口 |--①-|
口口口① |②③-④|
口口④①
口口口口

口⑧口⑧
口⑤⑥口
口⑦口⑦ |-⑤⑥-|
口口口口 |⑦-⑧-|
4
口口②口 |①---|
口口②口 |②---|
①口口口
①口口口

口口口口
口③⑦口
口⑥口口 |③④-⑤|
⑥④口⑤ |-⑥-⑦|
5
口①③口 |-①②-|
④口口口 |③-④-|
口口②口
口口口口

口口口口
口口⑥口
⑦口⑦口 |⑤-⑥-|
口⑧⑤⑧ |⑦-⑧-|
6
②②口口 |①---|
口口口① |②---|
口口口①
口口口口

口⑦③口
⑦口口口
⑤口④口 |③④-⑤|
口口口⑥ |-⑥⑦-|
7
②口③口 |--①-|
口口口① |②③-④|
口口④①
口口口口

口⑧口⑧
口口⑥口
口⑦口⑦ |-⑤⑥-|
口⑤口口 |⑦-⑧-|
8
口口②口 |①---|
口口②口 |②---|
①口口口
①口口口

口口口口
口口口口
口③口⑥ |③④-⑤|
⑦④口⑤ |-⑥⑦-|
9
口②①② |①---|
口口②① |----|
③口③③ |-②-③|
口口口口 |----|
10
口④②⑥ |①②-③|
③口⑤① |④-⑤⑥|
口口口⑤
口③①口

⑧口⑩口
⑪⑦口⑨
⑦口口口 |-⑦⑧-|
口⑪⑨口 |⑨⑩-⑪|
11
⑤①口③ |①-②③|
口口口口 |-④⑤-|
口④②口
④口口②

口⑦口口
口⑨⑥口
口口⑧口 |⑥-⑦-|
口口口口 |⑧-⑨-|
12
口④②⑥ |①②-③|
③口⑤① |④-⑤⑥|
口口口⑤
口③①口

⑧口⑩口
⑪⑦口⑨
⑦口口口 |-⑦⑧-|
口⑪⑨口 |⑨⑩-⑪|
13
③①⑧⑦ |①-②-|
口口⑤⑧ |③-④⑤|
⑧④②口 |-⑥⑦-|
⑥⑧口口 |⑧---|
14
②④⑥⑧ |①②-③|
⑩口口口 |④-⑤⑥|
口口⑪⑨ |-⑦⑧-|
⑦⑤③① |⑨⑩-⑪|
15
口口口口 |①-②③|
口①③⑤ |-④⑤-|
④②口口
口口口口

口口⑦口
⑥⑧口口
口口⑨口 |⑥-⑦-|
⑩口口口 |⑧⑨⑩-|
16
②④⑥口 |①②-③|
口口口口 |④-⑤⑥|
口口口口
口⑤③①

⑩口口⑧
口口口口
口口口口 |-⑦⑧-|
⑦口⑪⑨ |⑨⑩-⑪|
17
口③⑧⑦ |①-②-|
口①⑤⑧ |③-④⑤|
⑧④②口 |-⑥⑦-|
⑥⑧口口 |⑧---|
18
②④口② |①---|
⑤②③⑦ |②---|
口⑥口口 |③④-⑤|
口口①① |-⑥⑦-|
19
口口②口 |--①-|
⑦③⑥⑧ |②③-④|
⑧⑤口⑦ |-⑤⑥-|
口①④口 |⑦-⑧-|
20
②口口② |①---|
口口②口 |②---|
口口口口
①①口口

口口口⑦
口③口⑤
⑥口④口 |③④-⑤|
口口口口 |-⑥-⑦|
21
口⑥③口 |-①②-|
⑤⑧口口 |③-④-|
⑦⑥口① |⑤-⑥-|
口⑧④② |⑦-⑧-|
22
口②口② |①---|
②口②口 |②---|
口口口口
口口①①

⑦口口口
口③口口
④口口⑤ |③④-⑤|
口口⑥口 |-⑥⑦-|
23
口⑥②口 |--①-|
⑦⑤⑧口 |②-③④|
⑧口③⑦ |-⑤⑥-|
口①④口 |⑦-⑧-|
24
②口②口 |①---|
口②口② |②---|
口口口口
①①口口

口⑤口⑤
⑤口口⑥
口③口口 |③④-⑤|
口口④口 |---⑥|
25
口口③口 |-①②-|
口①口口 |③-④-|
②口口口
口口④口

口⑥口口
⑤⑧口口
⑦⑥口口 |⑤-⑥-|
口⑧口口 |⑦-⑧-|
26
口②④② |①---|
②⑤③⑧ |②--③|
口⑦口⑧ |④⑤-⑥|
⑥口①① |-⑦⑧-|
27
③口②④ |--①-|
⑦口⑥口 |②-③④|
⑧⑤⑧⑦ |-⑤⑥-|
口①口口 |⑦-⑧-|
28
②⑥②⑦ |①---|
③口⑤② |②---|
口④口口 |③④-⑤|
①①口口 |-⑥-⑦|
29
⑧口③口 |-①②-|
⑥⑦④口 |③-④-|
⑧⑤③① |⑤-⑥-|
⑥口④② |⑦-⑧-|
30
口②口② |①---|
②口②口 |②---|
口口口口
口口①①

⑦口口口
⑦③口口
④口口⑤ |③④-⑤|
口口⑥口 |-⑥⑦-|
31
口⑥②口 |--①-|
⑦⑤⑧口 |②-③④|
⑧口③⑦ |-⑤⑥-|
口①口④ |⑦-⑧-|
32
②口②口 |①---|
口②口② |②---|
口口口口
①①口口

口口⑦口
⑥口口口
口③口④ |③④-⑤|
口⑤口口 |-⑥-⑦|
33
⑤⑦⑧口 |-①②-|
口①⑥口 |③-④-|
⑦⑤②口 |⑤-⑥-|
③④③④ |⑦-⑧-|
34
口口口⑥ |①②-③|
④口口② |④-⑤⑥|
⑤口⑤口
①③①③

⑧口口口
口口口⑩
口⑦口⑦ |-⑦⑧-|
⑨⑪⑨⑪ |⑨⑩-⑪|
35
⑤口口③ |①-②③|
①口口口 |-④⑤-|
②④②④
口口口口

口⑦⑨口
口⑩⑥口
口口⑧口 |⑥-⑦-|
口口口口 |⑧⑨⑩-|
36
口口口⑥ |①②-③|
④口口② |④-⑤⑥|
⑤口⑤口
①③①③

⑧口口口
口口口⑩
口⑦口⑦ |-⑦⑧-|
⑨⑪⑨⑪ |⑨⑩-⑪|
37
口③⑧⑦ |①-②-|
①口⑤⑧ |③-④⑤|
⑧④②口 |-⑥⑦-|
⑥⑧口口 |⑧---|
38
②④⑥口 |①②-③|
口⑤③口 |④-⑤⑥|
口口口①
口⑤③①

⑩口口⑧
口口⑪口
⑦口口⑨ |-⑦⑧-|
⑦口⑪⑨ |⑨⑩-⑪|
39
口①③⑤ |①-②③|
口②口口 |-④⑤-|
④口口口
④②口口

口口口口
⑥⑧口⑦
口⑨⑩口 |⑥-⑦-|
口口口口 |⑧⑨⑩-|
40
②④⑥口 |①②-③|
口⑤③口 |④-⑤⑥|
口口口①
口⑤③①

⑩口口⑧
口口口口
⑦口口⑨ |-⑦⑧-|
⑦口⑪⑨ |⑨⑩-⑪|
41
口③⑧⑦ |①-②-|
口①⑤⑧ |③-④⑤|
⑧④②口 |-⑥⑦-|
⑥⑧口口 |⑧---|
42
口④⑤口 |--①-|
④⑥②⑤ |②③-④|
⑥①⑦③ |--⑤-|
口口口⑦ |⑥-⑦-|
43
口⑤⑥口 |--①-|
⑤⑦口⑥ |②-③④|
⑦③口① |--⑤-|
④口②口 |⑥-⑦-|
44
①③口① |①-②-|
口口②④ |③-④-|
口口口口
口口口口

口口⑤⑦
⑥⑧口口
口口口口 |⑤-⑥-|
口口口口 |⑦-⑧-|
45
口口口口 |①-②-|
⑤口口⑤ |③-④-|
①③⑦① |⑤-⑥-|
⑧⑥②④ |⑦-⑧-|
46
口④⑤口 |--①-|
④⑥②⑤ |②③-④|
⑥①⑦③ |--⑤-|
口口口⑦ |⑥-⑦-|
47
口④⑤口 |--①-|
④⑥口⑤ |②③-④|
⑥③⑦① |--⑤-|
口口②⑦ |⑥-⑦-|
48
口②口① |①-②-|
③口④口 |③-④-|
口口口口
口口口口

口口口⑧
口口口口
口⑤口⑥ |⑤-⑥-|
口⑦口口 |⑦-⑧-|
49
口口口口 |--①-|
口①口口 |②-③-|
口口口③
口口②口

口口口⑥
④⑥口口
⑦口④口 |④-⑤-|
⑤口口口 |⑥-⑦-|
50
口口口口 |①-②-|
④口②① |③④-⑤|
口③口⑤
⑤①⑤口

⑧口口口
口⑧口⑦
⑥口⑦口 |--⑥-|
口⑥口口 |⑦-⑧-|
51
⑦②口口 |--①-|
①⑦③⑥ |②③-④|
⑤口⑥④ |--⑤-|
④⑤④口 |⑥-⑦-|
52
口③口① |①-②-|
口口②口 |③-④-|
口④口口
口口口口

口口⑤⑦
⑥⑧口口
口口口口 |⑤-⑥-|
口口口口 |⑦-⑧-|
53
口口口⑥ |--①-|
④口口口 |②-③-|
⑥③⑦⑤ |④-⑤-|
①口②④ |⑥-⑦-|
54
口口口口 |①-②-|
④口②① |③④-⑤|
口③口⑤
⑤①⑤口

⑧口口口
口⑧口⑦
⑥口⑦口 |--⑥-|
口⑥口口 |⑦-⑧-|
55
口②口口 |--①-|
①口③④ |②③-④|
④口④口 |--⑤-|
⑦⑤口⑥ |⑥-⑦-|
56
①④①① |①---|
口⑦④④ |②-③-|
③口②② |④-⑤-|
⑤口⑥⑥ |⑥-⑦-|
57
口③①① |①-②-|
②口口口 |③-④-|
④口③③
口口口口

⑥口口⑦
口⑤口口
口口口口 |⑤-⑥-|
⑧口⑤⑤ |⑦-⑧-|
58
口口①口 |①---|
口口①① |----|
①①口口 |----|
口①口口 |----|

不確定度: 0

最終更新:2014年08月01日 00:04