Chronos
TAG
EXTREME
Level: 10
BPM: 128
Notes: 820
1
口口口口 |----|
口口口口 |----|
口口口口 |----|
口口口口
2
口⑥⑤④ |①②③④|
口⑫⑪⑩ |⑤⑥⑦⑧|
⑦⑧⑨口 |⑨⑩⑪⑫|
①②③口
3
口⑥⑤④ |①②③④|
口⑫⑪⑩ |⑤⑥⑦⑧|
⑦⑧⑨口 |⑨⑩⑪⑫|
①②③口
4
口⑥④③ |①②③④|
⑤⑨⑨口 |⑤⑥⑦-|
口⑧⑧⑦ |⑧-⑨-|
①②口口
5
口⑦口⑦ |①②③④|
⑤口口⑥ |⑤⑥⑦-|
口⑧口⑧ |⑧---|
①②③④
6
②④①⑤ |①-②-|
⑥口口③ |③-④-|
①⑤②④ |⑤-⑥-|
口③⑥口
7
②口①口 |①-②-|
口①②④ |③--④⑤⑥|
口口口③
③⑤⑥口
口⑦口口
口口⑫口
⑨⑪⑧口 |⑦⑧⑨⑩⑪⑫|
口口口⑩
8
口口④③ |①②③④|
①②口口 |⑤⑥⑦-|
口口口⑦
⑤⑥口口
口口口口
口⑨⑨口
口⑧⑧口 |⑧-⑨-|
口口口口
9
①②③④ |①②③④|
⑦口口⑦ |⑤⑥⑦-|
口⑨⑨口 |⑧-⑨-|
⑧⑤⑥⑧
10
①⑤④① |①-②③|
口⑥⑥口 |-④⑤-|
②口口③ |⑥-⑦-|
口⑦⑦口
11
口口口口 |①-②③|
口⑤④口 |-④⑤-|
⑦②③口 |⑥-⑦-|
①⑥⑥①
12
⑤口①④ |①-②③|
口⑥⑥① |-④⑤-|
口②③口 |⑥-⑦-|
口⑦⑦口
13
口④④口 |①--②|
③口口② |--③-|
②①①③ |④-⑤-|
口⑤⑤口
14
口⑦口① |①②③④|
⑥⑧⑧⑤ |⑤⑥⑦-|
⑨③④口 |⑧-⑨⑩|
②口⑩口
15
口⑥②⑥ |①--②|
口口口③ |-③④-|
口①口口 |⑤-⑥-|
④⑤⑤口
16
①口⑦口 |①②③④|
⑤⑧⑧⑥ |⑤⑥⑦-|
口④③⑨ |⑧-⑨⑩|
⑩口口②
17
⑦口⑦口 |①-②③|
②口口④ |-④⑤-|
⑤口①口 |⑥-⑦-|
口⑥⑥③
18
口⑦口① |①②③④|
⑥⑧⑧⑤ |⑤⑥⑦-|
⑨③④口 |⑧-⑨⑩|
②口口⑩
19
口③③口 |①--②|
②口口② |--③-|
口①口口 |-④--|
口④④口
20
①⑥⑤④ |①②③④|
②口口⑫ |⑤⑥⑦⑧|
③口口⑪ |⑨⑩⑪⑫|
⑦⑧⑨⑩
21
①口口② |①②③④|
口③④口 |⑤⑥⑦-|
口⑤⑥口 |----|
⑦⑦口口
22
④①④① |--①-|
口④①口 |②---|
口②③口 |③-④-|
②③②③
23
口①口① |--①-|
③口①④ |②-③④|
⑤②口⑥ |⑤⑥|
②口②口
24
①④①④ |--①-|
口①④口 |②---|
口③②口 |③-④-|
③②③②
25
①⑥①口 |--①-|
口①口⑤ |②-③④|
④口②口 |⑤⑥|
口②③②
26
④口口② |--①-|
①④②③ |②---|
④①③② |③-④-|
①口口③
27
口①③① |--①-|
④口①口 |②-③④|
⑧②口⑤ |⑤⑥⑦⑧|
②⑥②⑦
28
口④口口 |①---|
口口⑤③ |--②-|
口⑥①口 |③--④⑤⑥|
②口口口
29
口口口口 |①---|
③口⑤口 |--②-|
口口口口 |③-④⑤|
②口①④
30
①③口口 |①---|
口口⑥④ |-②③④|
⑤⑦②⑧ |⑤⑥⑦⑧|
口口口口
31
②④③① |-①-②|
口⑧⑤③ |-③④⑤|
③⑥⑨口 |⑥⑦⑧⑨|
①③⑦②
32
⑥⑥⑤口 |①-②③|
口口口③ |④⑤⑥-|
④口口口
①②口口
口口口口
口口⑦口
口⑧口⑦ |⑦-⑧-|
⑧口口口
33
口③②口 |①-②③|
⑥⑧⑦⑧ |④⑤⑥-|
⑦口④⑥ |⑦-⑧-|
口⑤①①
34
①②口③ |①②③④|
⑦⑧口⑨ |⑤⑥⑦⑧|
⑥口⑤④ |⑨⑩⑪⑫|
⑫口⑪⑩
35
①②口⑦ |①②③④|
⑧口③口 |⑤⑥⑦⑧|
⑥口⑤④
口口口口
口⑫口口
口口口口
口口口口 |⑨⑩⑪⑫|
口⑨⑩⑪
36
⑧⑧③口 |①-②③|
口④⑦① |④⑤⑥-|
口②⑤① |⑦-⑧-|
⑥⑥⑦口
37
口口口① |①②③④|
②⑦⑦⑦ |⑤⑥⑦-|
⑥口③①
④口口⑤
⑧⑧⑧口
⑨口口口
口⑨口⑨ |⑧-⑨-|
口口口口
38
⑥口⑦⑦ |①②③④|
⑪⑫⑤④ |⑤⑥⑦⑧|
⑧⑨①⑩ |⑨⑩⑪⑫|
②③①口
39
⑤⑥口④ |①②③④|
口口⑦⑦ |⑤⑥⑦⑧|
⑧口口口
②③①①
口口口口
口⑩口口
口口⑨⑨ |⑨⑩⑪⑫|
口⑫⑪⑪
40
口②②① |①-②-|
口口口口 |③④⑤-|
口⑤④口
③口口口
⑥口口⑦
口口⑧⑧
口口口⑦ |⑥-⑦-|
口口口口 |⑧-|
41
⑦②②⑥ |①-②-|
⑧⑧口口 |③④⑤-|
⑦口③⑤ |⑥-⑦-|
④口①① |⑧-|
42
⑥②②⑦ |①-②-|
口口④口 |③④⑤-|
⑤③口⑦ |⑥-⑦-|
①①⑧⑧ |⑧-|
43
④口③⑤ |①-②③|
口口①① |-④⑤-|
②口③⑤
口口口口
口口口口
口⑧口⑦
口口口口 |⑥⑦-⑧|
口⑥口⑦
44
口②②口 |①-②-|
口口①口 |③④⑤-|
口⑤④口
③口口口
⑥口口⑦
口口⑧⑧
口口口⑦ |⑥-⑦-|
口口口口 |⑧-|
45
⑦②②⑥ |①-②-|
⑧⑧口口 |③④⑤-|
⑦口③⑤ |⑥-⑦-|
④口①① |⑧-|
46
⑥②②⑦ |①-②-|
口口④口 |③④⑤-|
⑤③口⑦ |⑥-⑦-|
①①⑧⑧ |⑧-|
47
④口③⑤ |①-②③|
口口①① |-④⑤-|
②口③⑤
口口口口
口口口口
口⑧口⑦
口口口口 |⑥⑦-⑧|
口⑥口⑦
48
③②①口 |①②③④|
口⑩⑪⑫ |⑤⑥⑦⑧|
⑥⑤④口 |⑨⑩⑪⑫|
口⑦⑧⑨
49
口③④口 |①--②|
⑤口口口 |-③④-|
口口⑥② |⑤-⑥-|
①口口口
50
口⑥口口 |①-②-|
口口⑤口 |③-④-|
④口口② |⑤-⑥-|
①口③口
51
口口④① |①--②|
口③口口 |-③④-|
口②口⑤ |⑤-⑥-|
⑥口口口
52
⑦口口口 |①②③④|
口口②① |⑤⑥⑦-|
③④⑨口 |--⑧⑨|
口⑧⑥⑤
53
口口③口 |①--②|
口⑥口① |-③④-|
④口⑤口 |--⑤⑥|
口口口②
54
①口口② |①--②|
口口口⑥ |-③④-|
③⑤口口 |⑤-⑥-|
口口口④
55
①①②② |①---|
口口口口 |--②-|
②口口① |----|
口②①口
56
①①口口 |①②③④|
⑤⑤③③ |⑤⑥⑦-|
口⑦⑦口 |----|
④口②⑥
57
口口①⑤ |①-②③|
口⑥④口 |④⑤⑥-|
口③口⑦ |⑦-⑧-|
②⑧口口
58
⑤口口口 |①-②③|
口④⑥① |④⑤⑥-|
口口③口
口口口②
口口口口
口口口⑧
口⑦口口 |⑦-⑧-|
口口口口
59
口口⑤④ |①②③④|
⑥口口口 |⑤⑥⑦⑧|
⑦⑧口③
①②口口
口口口口
口口⑪⑩
口口口口 |⑨⑩⑪⑫|
⑫口口⑨
60
①②口③ |①②③④|
口口口口 |⑤⑥⑦⑧|
④⑤⑥口
口口⑧⑦
口口口⑫
⑪口口口
口口口⑩ |⑨⑩⑪⑫|
口⑨口口
61
口①①⑦ |①-②③|
口⑥⑥⑤ |④⑤⑥-|
口③④口 |⑦-⑧-|
②口口⑧
62
⑨口口口 |①②③④|
⑧⑤口④ |⑤⑥⑦-|
①①③② |⑧-⑨-|
⑥⑦⑦口
63
口⑤③① |①②③④|
⑦⑨⑪口 |⑤⑥⑦⑧|
⑧⑩⑫口 |⑨⑩⑪⑫|
口⑥④②
64
口⑤③① |①②③④|
口⑫口⑩ |⑤⑥⑦⑧|
⑪⑧⑨口 |⑨⑩⑪⑫|
⑦⑥④②
65
口②②① |①-②-|
口口口口 |③④⑤-|
口⑤④口
③口口口
⑥口口⑦
口口⑧⑧
口口口⑦ |⑥-⑦-|
口口口口 |⑧-|
66
⑦②②⑥ |①-②-|
⑧⑧口口 |③④⑤-|
⑦口③⑤ |⑥-⑦-|
④口①① |⑧-|
67
⑥②②⑦ |①-②-|
口口④口 |③④⑤-|
⑤③口⑦ |⑥-⑦-|
①①⑧⑧ |⑧-|
68
④口③⑤ |①-②③|
口口①① |-④⑤-|
②口③⑤
口口口口
口口口口
口⑧口⑦
口口口口 |⑥⑦-⑧|
口⑥口⑦
69
口②②口 |①-②-|
口口①口 |③④⑤-|
口⑤④口
③口口口
⑥口口⑦
口口⑧⑧
口口口⑦ |⑥-⑦-|
口口口口 |⑧-|
70
⑦②②⑥ |①-②-|
⑧⑧口口 |③④⑤-|
⑦口③⑤ |⑥-⑦-|
④口①① |⑧-|
71
⑥②②⑦ |①-②-|
口口④口 |③④⑤-|
⑤③口⑦ |⑥-⑦-|
①①⑧⑧ |⑧-|
72
④口③⑤ |①-②③|
口口①① |-④⑤-|
②口③⑤
口口口口
口口口口
口⑧口⑦
口口口口 |⑥⑦-⑧|
口⑥口⑦
73
③②①口 |①②③④|
口⑩⑪⑫ |⑤⑥⑦⑧|
⑥⑤④口 |⑨⑩⑪⑫|
口⑦⑧⑨
74
④⑫⑨① |①②③④|
口口口口 |⑤⑥⑦⑧|
⑧②⑤⑪ |⑨⑩⑪⑫|
③⑦⑩⑥
75
④口口③ |①②③④|
口②①⑦ |⑤⑥⑦-|
⑥口⑤口
口口口口
口口口口
⑧⑨口口
口口口口 |⑧-⑨⑩|
口口口⑩
76
口①③④ |①②③④|
口口②口 |⑤⑥⑦⑧|
⑦⑥口口
口⑤⑧口
口⑫口口
口⑪口口
口口⑨⑩ |⑨⑩⑪⑫|
口口口口
77
①口②② |①-②---③④|
口口③③ |⑤---|
口④口口
口⑤⑤口
⑥口口口
⑥⑥口口
口口⑥⑥ |-⑥--|
口口口⑥
不確定度: 0