水上の提督(Short mix from '幻想水滸伝Ⅴ')
猫叉Master

BASIC

Level: 5
BPM: 140
Notes: 373

1
口口口口 |----|
口口口口 |----|
口口口口 |----|
口口口口 |----|
2
口口口口 |①---|
口口口口 |----|
②②口口 |②---|
①①口口 |----|
3
②②口口 |①---|
①①口口 |----|
口口口口 |②---|
口口口口 |----|
4
口口口口 |①---|
口口口口 |----|
口口②② |②---|
口口①① |----|
5
口口②② |①---|
口口①① |----|
口口口口 |②---|
口口口口 |----|
6
口口口口 |①---|
口口口口 |----|
口②②口 |②---|
口①①口 |----|
7
口②②口 |①---|
口①①口 |----|
口口口口 |②---|
口口口口 |----|
8
口④④口 |①---|
口③③口 |②---|
口②②口 |③---|
口①①口 |④---|
9
①口口① |①---|
②口口② |②---|
③口口③ |③---|
④口口④ |④---|
10
口口口口 |①---|
口①口口 |----|
口口①口
口口口口

口口口口
口口口口
口口③口 |----|
口口口② |②-③-|
11
②口口口 |①-②-|
④①口④ |③---|
③口口口 |----|
口口口口 |④---|
12
③口口口 |①---|
④③②口 |②---|
口④①② |③---|
口口口① |④---|
13
口口口口 |①---|
口口口口 |----|
①口口口 |----|
口①口口 |----|
14
口口口口 |①---|
口口①口 |----|
口①口口
口口口口

口口口口
口口口口
口③口口 |----|
②口口口 |②-③-|
15
口口口② |①-②-|
口口①口 |③---|
口口口③ |----|
口口④口 |--④-|
16
口口口③ |①---|
口②③④ |②---|
②①④口 |③---|
①口口口 |④---|
17
口口口口 |①---|
口口口口 |----|
口口口① |----|
口口①口 |----|
18
口口口口 |①---|
口口口口 |----|
口口②② |----|
①口口① |②---|
19
①口①口 |①---|
口②口② |②---|
③口③口 |③---|
口口口口 |----|
20
③口口口 |①---|
④①①③ |②---|
口口口④ |③---|
口②②口 |④---|
21
口口口口 |①---|
口口口口 |----|
①口口口 |----|
口口口① |----|
22
口口口口 |①---|
口口口口 |----|
②②口口 |----|
①口口① |②---|
23
口①口① |①---|
②口②口 |②---|
口③口③ |③---|
口口口口 |----|
24
口口口③ |①---|
③①①④ |②---|
④口口口 |③---|
口②②口 |④---|
25
口口口口 |①---|
口口口口 |----|
口口口① |----|
①口口口 |----|
26
口口口口 |①---|
④②①③ |②---|
③①②④ |③---|
口口口口 |④---|
27
②③口① |①---|
口口口口 |②---|
口口口口 |③---|
①口③② |----|
28
①口口② |①---|
③口口④ |②---|
④口口③ |③---|
②口口① |④---|
29
口口③口 |①---|
口①②口 |②---|
口②①口 |③---|
口③口口 |----|
30
③口口③ |①---|
口口口口 |--②-|
②①①② |--③-|
口口口口 |----|
31
口④⑤口 |--①-|
口③⑥口 |②-③-|
口②⑦口 |④-⑤-|
口①口口 |⑥-⑦-|
32
口口口口 |①-②-|
口口口口 |③-④-|
⑥⑦⑤⑧ |⑤-⑥-|
②③①④ |⑦-⑧-|
33
⑥⑦⑤⑧ |①-②-|
②③①④ |③-④-|
口口口口 |⑤-⑥-|
口口口口 |⑦-⑧-|
34
口口口口 |--①-|
口①⑥口 |②-③-|
口②⑤口 |④-⑤-|
口③④口 |⑥---|
35
口口口口 |①---|
①①④④ |②---|
③③②② |③---|
口口口口 |④---|
36
①口口⑧ |①-②-|
②口口⑦ |③-④-|
口③⑥口 |⑤-⑥-|
口④⑤口 |⑦-⑧-|
37
口口口口 |①---|
④①①④ |②---|
③②②③ |③---|
口口口口 |④---|
38
①①①① |①---|
口口口口 |--②-|
②口口② |----|
口口口口 |----|
39
口口口口 |----|
口口口口 |----|
口口口③ |--①-|
口口①② |②-③-|
40
口⑧⑧口 |①-②-|
④⑤⑥⑦ |③-④-|
③②①口 |⑤-⑥-|
口口口口 |⑦-⑧-|
41
②①口口 |----|
③口口口 |----|
口口口口 |--①-|
口口口口 |②-③-|
42
口⑥口口 |①-②-|
⑤①②③ |③-④-|
口④④口 |----|
口口口口 |⑤-⑥-|
43
口口②口 |----|
口口口① |--①-|
口口口口 |②---|
口口口口 |----|
44
口①②口 |①-②-|
口③④口 |③-④-|
口⑤⑥口 |⑤-⑥-|
口⑦⑧口 |⑦-⑧-|
45
③③③③ |①---|
口②②口 |②---|
①口口① |③---|
口口口口 |----|
46
口口口口 |①---|
口①口口 |----|
口口①口
口口口口

口口口口
口口口口
口口③口 |----|
口口口② |②-③-|
47
②口口口 |①-②-|
④①口④ |③---|
③口口口 |----|
口口口口 |④---|
48
③口口口 |①---|
④③②口 |②---|
口④①② |③---|
口口口① |④---|
49
口口口口 |①---|
口口口口 |----|
①口口口 |----|
②①口② |--②-|
50
口口口口 |①---|
口口①口 |----|
口①口口
口口口口

口口口口
口口口口
口③口口 |----|
②口口口 |②-③-|
51
口口口② |①-②-|
口口①口 |③---|
口口口③ |----|
口口④口 |--④-|
52
口口口③ |①---|
口②③④ |②---|
②①④口 |③---|
①口口口 |④---|
53
口口口口 |①---|
口口口口 |----|
口口口① |----|
口口①口 |----|
54
④口口口 |①---|
①③口① |----|
口口②口 |②-③-|
口口口口 |④---|
55
口①口口 |①---|
①口②口 |②---|
口②口③ |③---|
口口③口 |----|
56
口口口④ |①---|
①口③① |----|
口②口口 |②-③-|
口口口口 |④---|
57
口口①口 |①---|
口②口① |②---|
③口②口 |③---|
口③口口 |----|
58
②口口④ |①---|
口①③口 |②---|
口③①口 |③---|
④口口② |④---|
59
口口口口 |①---|
③口口③ |②---|
②口口② |③---|
口①①口 |----|
60
②口口④ |①---|
口①③口 |②---|
口③①口 |③---|
④口口② |④---|
61
口口口口 |①---|
③③③③ |②---|
②口口② |③---|
口①①口 |----|
62
①口口口 |①---|
②口口口 |②---|
③口口口 |③---|
④口口口 |④---|
63
口④口口 |①---|
口③口口 |②---|
口②口口 |③---|
口①口口 |④---|
64
口口①口 |①---|
口口②口 |②---|
口口③口 |③---|
口口④口 |④---|
65
口口口④ |①---|
口口口③ |②---|
口口口② |③---|
口口口① |④---|
66
①口口口 |①---|
口①口口 |----|
②口口口 |②---|
口②口口 |----|
67
口口口② |①---|
口口②口 |----|
口口口① |②---|
口口①口 |----|
68
口①①口 |①---|
口口口口 |----|
口②②口 |②---|
口口口口 |----|
69
口口口口 |①---|
②口口② |----|
①口口① |②---|
口口口口 |----|


不确定度: 0

最終更新:2013年01月19日 13:20