水上の提督(Short mix from '幻想水滸伝Ⅴ')
猫叉Master

ADVANCED

Level: 7
BPM: 140
Notes: 533

1
口口口口 |----|
口口口口 |----|
口口口口 |----|
口口口口 |----|
2
③口口⑥ |①--②|
口口口口 |--③-|
⑤口口② |④--⑤|
①口口④ |--⑥-|
3
③口口⑥ |①--②|
口口口口 |--③-|
⑤口口② |④--⑤|
①口口④ |--⑥-|
4
口③⑥口 |①--②|
口口口口 |--③-|
口⑤②口 |④--⑤|
口①④口 |--⑥-|
5
口③⑦口 |①--②|
口口口口 |--③-|
口⑥②⑤ |④⑤-⑥|
口①④口 |--⑦-|
6
③口口⑥ |①--②|
口口口口 |--③-|
⑤口口② |④--⑤|
①口口④ |--⑥-|
7
③口口⑥ |①--②|
口口口口 |--③-|
⑤口口② |④--⑤|
①口口④ |--⑥-|
8
口③口口 |①--②|
⑤口口⑤ |--③-|
口⑥⑦② |④--⑤|
①④④口 |--⑥⑦|
9
①口口② |①②③④|
口③④口 |⑤⑥⑦⑧|
⑤口口⑥
口⑦⑧口

⑬⑨口⑬
口口口⑩
口⑪口口 |⑨⑩⑪⑫|
⑫口口⑫ |--⑬-|
10
口口口口 |①---|
①①口口 |----|
口口①①
口口口口

口口口口
口口口口
口③口③ |----|
口②口② |②-③-|
11
口②口② |①-②-|
口①口① |③---|
③口③口
口口口口

口口口口
口⑤口口
口口口⑥ |----|
口口④口 |④-⑤⑥|
12
②口口② |①--②|
③口口③ |③---|
口口口口
①口口口

口口口口
口口④⑥
⑦④⑤口 |④---|
口⑤口口 |⑤-⑥⑦|
13
口口口口 |①---|
口口口口 |----|
口口口口 |----|
口②②① |--②-|
14
口口口口 |①---|
①①口口 |----|
口口①①
口口口口

口口口口
口口口口
口③口③ |----|
口②口② |②-③-|
15
口②口② |①-②-|
口①口① |③---|
③口③口
口口口口

口口口口
口口口口
口④④口 |----|
口口口口 |--④-|
16
②口口② |①--②|
③口口③ |③---|
口口口口
①口口①

口口口口
口④口⑥
⑦⑤④口 |④---|
口口⑤口 |⑤-⑥⑦|
17
口口口口 |①---|
口口口口 |----|
口口口口 |----|
口口口① |----|
18
口口口口 |①---|
①口①口 |----|
口①口①
口口口口

口口口口
④②②口
③口口口 |---②|
口口口口 |--③④|
19
①口口② |①-----②③|
口口⑤③ |④-----⑤⑥|
口口⑥④ |⑦---|
口口⑦口 |----|
20
①口口口 |①--②|
口口口② |③---|
③口口口
口口口口

⑥口口⑥
⑦口口⑦
口④④口 |④---|
口⑤⑤口 |⑤-⑥⑦|
21
口口口口 |①---|
口口口口 |----|
①口口① |----|
口口口口 |----|
22
口口口口 |①---|
口①口① |----|
①口①口
口口口口

口口口口
口②②④
口口口③ |---②|
口口口口 |--③④|
23
②口口① |①-----②③|
③⑤口口 |④-----⑤⑥|
④⑥口口 |⑦---|
口⑦口口 |----|
24
口口口① |①--②|
②口口③ |③---|
口口口口
口口口口

⑥口口⑥
⑦口口⑦
口④④口 |④---|
口⑤⑤口 |⑤-⑥⑦|
25
口口口口 |①---|
口口口口 |----|
①口口① |----|
口口口口 |----|
26
口口⑥④ |①-②-|
②⑤口口 |③-④-|
口⑧⑦③ |⑤-⑥⑦|
①口⑨口 |⑧-⑨-|
27
①口口① |①---②-|
③⑤⑤③ |③---④-|
②口口② |⑤---|
④口口④ |----|
28
①口口③ |①---②-|
口⑤⑦口 |③---④-|
④口口② |⑤---⑥-|
口⑧⑥口 |⑦---⑧-|
29
口②②口 |①---②-|
③口口③ |③---④-|
④①①④ |⑤---|
⑤口口⑤ |----|
30
①③口① |①---|
③口口口 |--②-|
口口口② |--③-|
口口②口 |----|
31
口③口① |--①-|
④口②口 |②-③-|
⑤口⑦口 |④-⑤-|
口⑥口口 |⑥-⑦-|
32
口⑦③口 |①-②-|
②口口⑧ |③-④-|
⑥口口④ |⑤-⑥-|
①⑤口① |⑦-⑧-|
33
口⑦⑦口 |①-②-|
③口口⑥ |③-④-|
口②⑤口 |⑤-⑥-|
口④①口 |-⑦--|
34
①口④④ |--①-|
口口口口 |-②-③|
口⑤⑤口 |---④|
③③口② |--⑤-|
35
①口口⑧ |①-②-|
口②⑦口 |③-④-|
③口口⑥ |⑤-⑥-|
口④⑤口 |⑦-⑧-|
36
口①⑧口 |①-②-|
⑦口口② |③-④-|
口③⑥口 |⑤-⑥-|
⑤口口④ |⑦-⑧-|
37
口⑤④口 |①--②|
③④⑤③ |--③-|
②口口② |④---|
口①①口 |⑤---|
38
②②②② |①---|
口口口口 |--②-|
口口口口 |----|
①①①① |----|
39
①口口口 |----|
②口口口 |----|
③口口口 |--①-|
口口口口 |②-③-|
40
口⑧口⑦ |①-②-|
口口口⑥ |③-④-|
口口⑧⑤ |⑤-⑥-|
①②③④ |⑦-⑧-|
41
③②①口 |----|
口口口口 |----|
口口口口 |--①-|
口口口口 |②-③-|
42
⑤⑥⑦⑧ |①-②-|
①④口口 |③-④-|
②口口口 |----|
③口④口 |⑤⑥⑦⑧|
43
口⑤口口 |----|
口⑥口口 |--①②|
口口口口 |③④--|
④③②① |--⑤⑥|
44
①口②③ |①-②③|
④口⑤⑥ |④-⑤⑥|
⑦⑧⑨⑩ |⑦⑧⑨⑩|
⑪⑫⑬⑭ |⑪⑫⑬⑭|
45
⑦③②⑦ |①②③④|
⑤①④⑥ |⑤⑥⑦-|
口口口口 |⑧---|
⑨⑧⑧⑨ |⑨---|
46
口口口口 |①---|
①①口口 |----|
口口①①
口口口口

口口口口
口口口口
口③口③ |----|
口②口② |②-③-|
47
口②口② |①-②-|
口①口① |③---|
③口③口
口口口口

口口口口
口⑤口口
口口口⑥ |----|
口口④口 |④-⑤⑥|
48
②⑥⑦口 |①--②|
口④④③ |③---|
口⑤⑤口 |④---|
①口口口 |⑤-⑥⑦|
49
①口口⑤ |①②③④|
②口口⑥ |⑤⑥⑦⑧|
③口口⑦
④口口⑧

⑫口⑫口
口⑨口口
口口⑩口 |⑨⑩⑪⑫|
⑬⑪⑬口 |--⑬-|
50
口口口口 |①---|
①口口① |----|
①口口①
口口口口

口口口口
口口口口
口③口③ |----|
口②口② |②-③-|
51
口②口② |①-②-|
口①口① |③---|
③口③口
口口口口

口口口口
口口口口
口④④口 |----|
口口口口 |--④-|
52
②口口② |①--②|
③口口③ |③---|
口口口口
①口口①

口口口口
口④口⑥
⑦⑤④口 |④---|
口口⑤口 |⑤-⑥⑦|
53
③口口⑥ |①--②|
口⑤②口 |--③-|
口口口口 |④--⑤|
④口口① |--⑥-|
54
口口口口 |①---|
口口口口 |----|
①口口①
口口口口

②②口口
口③③口
口口④④ |②-③-|
口口口口 |④---|
55
口口②③ |①-②③|
①④⑦口 |④-⑤-⑥-|
口口口口 |⑦---|
口⑥⑤口 |----|
56
口口口口 |①---|
口口口口 |----|
①口口①
口口口口

口口②②
口③③口
④④口口 |②-③-|
口口口口 |④---|
57
①口口② |①--②|
③口口④ |③--④|
口⑤⑤口 |⑤---|
口口口口 |----|
58
③口口口 |①--②|
①口口口 |③--④|
口口④②
口口口口

口口口口
⑦口口⑥
口口口⑧ |⑤--⑥|
口⑤口口 |⑦--⑧|
59
④口口口 |①--②|
⑤口②口 |③-④⑤|
⑥口口口 |⑥---|
①③口口 |----|
60
口口口③ |①--②|
口口口① |③--④|
②④口口
口口口口

口口口口
⑥口口⑦
口口口口 |⑤--⑥|
⑧口⑤口 |⑦--⑧|
61
①口口② |①②③④|
口③④口 |⑤⑥⑦⑧|
⑤口口⑥
口⑦⑧口

⑬⑨口⑬
口口口⑩
口⑪口口 |⑨⑩⑪⑫|
⑫口口⑫ |--⑬-|
62
口口口口 |①---|
①①口口 |----|
口口①① |②---|
口②口② |----|
63
口口口口 |①---|
口②口② |----|
①口①口 |②---|
口口口口 |----|
64
口口②口 |----|
口口④④ |①--②|
③③①口 |③---|
口口口口 |④---|
65
①①口口 |①---|
②②口口 |②---|
口口③③ |③---|
口口④④ |④---|
66
③口口⑥ |①--②|
口口口口 |--③-|
⑤口口② |④--⑤|
①口口④ |--⑥-|
67
③口口⑥ |①--②|
口口口口 |--③-|
⑤口口② |④--⑤|
①口口④ |--⑥-|
68
口③⑥⑦ |①--②|
口口口口 |--③-|
口⑤②口 |④--⑤|
口①④口 |--⑥⑦|
69
口③⑦口 |①--②|
口口口口 |--③-|
口⑥②⑤ |④⑤-⑥|
口①④口 |--⑦-|


不确定度: 0

最終更新:2013年01月19日 13:19