水上の提督(Short mix from '幻想水滸伝Ⅴ')
猫叉Master

EXTREME

Level: 9
BPM: 140
Notes: 786

1
口口口口 |----|
口口口口 |----|
口口口口 |----|
口口口口 |----|
2
⑥口口③ |①--②|
口②⑤口 |--③-|
口口口口 |④--⑤|
①口口④ |--⑥-|
3
⑥口口③ |①--②|
口②⑤口 |--③-|
口口口口 |④--⑤|
①口口④ |--⑥-|
4
⑥口口③ |①--②|
口②⑤口 |--③-|
口口口口 |④--⑤|
①口口④ |--⑥-|
5
⑦⑤口③ |①--②|
口②口口 |--③-|
口⑥口口 |④⑤-⑥|
①口口④ |--⑦-|
6
⑥⑥③③ |①--②|
口②⑤口 |--③-|
口⑤②口 |④--⑤|
①①④④ |--⑥-|
7
⑥⑥③③ |①--②|
口②⑤口 |--③-|
口⑤②口 |④--⑤|
①①④④ |--⑥-|
8
口口③③ |①--②|
口②口口 |--③-|
口口②口
①①口口

口口口口
口口口口
⑤口⑦⑤ |④--⑤|
口⑥④④ |--⑥⑦|
9
①⑤口③ |①②③④|
②口⑥④ |⑤⑥⑦⑧|
口⑦口口
口口⑧口

⑫口口⑬
⑫⑨口⑬
⑫口⑩⑬ |⑨⑩⑪⑫|
⑫⑪口⑬ |--⑬-|
10
口①①口 |①---|
口②口口 |----|
⑤③⑤口 |------②③|
口④口口 |④-⑤-|
11
口②口② |①-②-|
③口③口 |③---|
口口口口
①口①口

口口口口
口口⑤口
口口④口 |----|
口口⑥口 |④-⑤⑥|
12
口②口② |①--②|
口③口③ |③---|
口①口①
口口口口

口口口口
口⑥④口
④口⑤⑦ |④---|
⑤口口口 |⑤-⑥⑦|
13
③③⑥⑥ |①--②|
⑤⑤②② |--③-|
口口口口 |④--⑤|
④①①④ |--⑥-|
14
口口口口 |①---|
口口口口 |----|
①①①①
口口口口

口口口口
口②口口
⑤③⑤口 |------②③|
口④口口 |④-⑤-|
15
口②口② |①-②-|
③口③口 |③---|
口④口④ |----|
①口①口 |--④-|
16
口②口② |①--②|
口③口③ |③---|
口口口口
①口①口

口口口口
口⑥④口
④口⑤⑦ |④---|
⑤口口口 |⑤-⑥⑦|
17
③③⑥⑥ |①--②|
⑤⑤②② |--③-|
口口口口 |④--⑤|
④①①④ |--⑥-|
18
口口口口 |①---|
口口口口 |----|
①①①①
口口口口

②口口口
口④④②
②③③口 |---②|
口口口② |--③④|
19
口①①② |①-----②③|
③口口⑤ |④-----⑤⑥|
⑥口口④ |⑦---|
口口口⑦ |----|
20
①③口口 |①--②|
③①口口 |③---|
口口口口
口口口②

口口口口
口⑤④口
④⑥⑦⑤ |④---|
口口口口 |⑤-⑥⑦|
21
③③⑥⑥ |①--②|
⑤⑤②② |--③-|
口口口口 |④--⑤|
④①①④ |--⑥-|
22
口口口口 |①---|
口口口口 |----|
①①①①
口口口口

口口口②
②④④口
口③③② |---②|
②口口口 |--③④|
23
②①①口 |①-----②③|
⑤口口③ |④-----⑤⑥|
④口口⑥ |⑦---|
⑦口口口 |----|
24
口口③① |①--②|
口口①③ |③---|
口口口口
②口口口

口口口口
口④⑤口
⑤⑦⑥④ |④---|
口口口口 |⑤-⑥⑦|
25
⑦口口⑥ |①-②-|
口⑧⑨口 |③-④-|
④⑩⑪⑤ |⑤⑥-⑦|
②①①③ |⑧⑨⑩⑪|
26
④口⑦⑥ |①-②-|
⑧⑤⑤③ |③-④-|
②口口⑨ |⑤-⑥⑦|
①口口① |⑧-⑨-|
27
①⑤⑤③ |①---②-|
口②④口 |③---④-|
⑤③①⑤ |⑤---|
④口口② |----|
28
③⑤⑤① |①---②-|
①⑦⑦③ |③---④-|
⑥②②⑥ |⑤---⑥-|
④⑧⑧④ |⑦---⑧-|
29
②③口② |①---②-|
①口口③ |③---④-|
④口①④
口口口口

口口口口
口⑩⑪口
口⑧⑨口 |⑤-⑥⑦|
⑤⑥⑦⑤ |⑧⑨⑩⑪|
30
⑥②②④ |①--②|
①口口① |--③④|
③口口口 |--⑤⑥|
③口⑤⑤ |----|
31
口③口口 |--①②|
⑤口②口 |③④⑤⑥|
①口④⑥
口口口口

⑨口⑩口
口口⑭⑫
⑪⑦口口 |⑦⑧⑨⑩|
⑬口口⑧ |⑪⑫⑬⑭|
32
⑦⑥⑤口 |①-②③|
口口口口 |④⑤⑥⑦|
口②③④
口①①口

口口口口
口⑧⑨⑩
口⑮口口 |⑧⑨⑩⑪|
⑬⑫⑪⑭ |⑫⑬⑭⑮|
33
⑥④口① |①②③④|
②口口⑦ |⑤⑥⑦⑧|
口口⑤③
口⑧口口

口口⑪⑪
口口⑨口
⑩口口口 |⑨⑩⑪-|
口口⑫⑫ |-⑫--|
34
①⑤口口 |--①②|
②口⑥口 |-③-④|
口④口口 |-⑤-⑥|
③口⑦⑧ |-⑦⑧-|
35
③口②口 |①-②-|
④口口① |③④-⑤|
口口①口
⑤口口口

口口⑧口
口⑦⑨口
口⑥⑩口 |-⑥⑦-|
口口⑪口 |⑧⑨⑩⑪|
36
口口口③ |①-②③|
⑥口口⑤ |④⑤⑥⑦|
④口口⑦
②①口①

口⑧⑮口
口⑩⑬口
口⑫⑪口 |⑧⑨⑩⑪|
口⑭⑨口 |⑫⑬⑭⑮|
37
④口口④ |①--②|
①⑤口② |--③-|
①口⑤② |④---|
③口口③ |⑤---|
38
口①②口 |①---|
②口口① |--②-|
①口口②
口②①口

口口口口
口③口⑤
口口口口 |③--④|
口口口④ |--⑤-|
39
口口口口 |①--②|
口③口口 |--③-|
口口①口
②口口口

⑥④口⑤
⑦口口口
⑧口口口 |--④⑤|
⑨口口口 |⑥⑦⑧⑨|
40
口⑤①⑥ |①②③④|
口⑦②⑧ |⑤⑥⑦⑧|
口口③口
口口④口

口口口口
⑬口⑬口
口⑨口⑩ |⑨⑩⑪⑫|
⑭⑪⑭⑫ |⑬--⑭|
41
口③口口 |----|
①④口② |----|
口⑤口口 |--①②|
口⑥口口 |③④⑤⑥|
42
⑤口①⑤ |①②③④|
口口②口 |⑤--⑥|
⑥口③⑥
口口④口

口口口口
⑦⑧⑨⑩
口口口口 |----|
⑩⑨⑧⑦ |⑦⑧⑨⑩|
43
①②③④ |----|
口⑤口口 |--①②|
④③②① |③④--|
口口⑥口 |--⑤⑥|
44
①口口口 |①-②③|
口口②口 |④-⑤⑥|
④口⑤③
口口口⑥

口口⑧⑩
⑦⑪口口
⑬⑨口⑫ |⑦⑧⑨⑩|
口口⑭口 |⑪⑫⑬⑭|
45
⑧⑤⑤⑧ |①②③④|
③⑦⑦② |⑤⑥⑦-|
⑧⑥⑥⑧ |⑧---|
①⑨⑨④ |⑨---|
46
口①口口 |①---|
①口口① |----|
口口①口
口口口口

口口口口
口②口口
⑤③⑤口 |------②③|
口④口口 |④-⑤-|
47
口②口② |①-②-|
③口③口 |③---|
口口口口
①口①口

口口口口
口口⑤口
口口④口 |----|
口口⑥口 |④-⑤⑥|
48
口②口② |①--②|
口③口③ |③---|
口①口①
口口口口

口口口口
口⑥④口
④口⑤⑦ |④---|
⑤口口口 |⑤-⑥⑦|
49
①⑤口③ |①②③④|
②口⑥④ |⑤⑥⑦⑧|
口⑦口口
口口⑧口

⑫口口⑬
⑫⑨口⑬
⑫口⑩⑬ |⑨⑩⑪⑫|
⑫⑪口⑬ |--⑬-|
50
口①①④ |①--②|
③⑤口口 |--③-|
⑧⑥⑧口 |④-----⑤⑥|
口⑦②口 |⑦-⑧-|
51
⑤②口② |①-②③|
④口④③ |④-⑤-|
⑦⑧口⑧ |⑥--⑦|
①口①⑥ |--⑧-|
52
口②口② |①--②|
④③口③ |③-④-|
口口口口
①口①口

口口口口
口⑧⑤口
⑤⑥⑦⑨ |⑤--⑥|
⑦口口口 |⑦-⑧⑨|
53
③③⑥⑥ |①--②|
⑤⑤②② |--③-|
口口口口 |④--⑤|
④①①④ |--⑥-|
54
口口口口 |①---|
口③③口 |------②③|
①②②①
口①①口

⑤④④⑤
⑥口口⑥
口口口口 |④-⑤-|
口⑦⑦口 |⑥--⑦|
55
④③③④ |①-②③|
口⑥⑥口 |④-⑤-⑥-|
②⑤⑤①
口口口口

口口口口
口口口口
⑧口口⑧ |⑦---|
⑦口口⑦ |⑧---|
56
口口口口 |①---|
①③③① |------②③|
口②②口
口①①口

⑤④④⑤
⑥口口⑥
口口口口 |④-⑤-|
口⑦⑦口 |⑥--⑦|
57
④⑥⑥④ |①--②|
口②②口 |③--④|
⑤③③⑤ |⑤---|
①口口① |⑥---|
58
口口口③ |①--②|
口①①③ |③--④|
②口口口
④②④口

口⑥口口
⑥⑦口⑧
口⑦⑤⑤ |⑤--⑥|
口口口⑧ |⑦--⑧|
59
口④②② |①--②|
④口⑤口 |③-④⑤|
①⑤③口
③①口口

口口口口
口口口口
口口⑧⑥ |⑥---|
⑦口⑥口 |--⑦⑧|
60
③口口口 |①--②|
③①口① |③--④|
口口口②
口④②④

口口⑥口
⑧口⑦⑥
⑤⑤⑦口 |⑤--⑥|
⑧口口口 |⑦--⑧|
61
②②④口 |①--②|
口⑤口④ |③-④⑤|
口③⑤①
口口①③

口⑧口⑧
⑧口⑦口
⑥⑧口⑦ |⑥--⑦|
⑦⑥⑦口 |--⑧-|
62
口口口口 |①--②|
④口口① |--③-|
③⑤②⑥ |④--⑤|
④口口① |--⑥-|
63
口口④口 |①--②|
口①口口 |--③-|
③⑤②⑥ |④--⑤|
④口口① |--⑥-|
64
口口⑤⑧ |①--②|
③口⑥口 |③-④⑤|
④⑦②⑨ |⑥--⑦|
⑥口口① |⑧-⑨-|
65
口口口口 |①--②|
⑦⑤③① |③-④-|
④⑥②⑧ |⑤--⑥|
⑤口口① |⑦-⑧-|
66
①①口③ |①--②|
口②①① |--③-|
口口口口
口口口口

⑥口口口
口口⑤口
口口口口 |④--⑤|
口口口④ |--⑥-|
67
⑥口口③ |①--②|
口②⑤口 |--③-|
口口口口 |④--⑤|
①口口④ |--⑥-|
68
口口口③ |①--②|
口②⑤口 |--③-|
口口⑦口 |④--⑤|
①⑥口④ |--⑥⑦|
69
⑦⑤口③ |①--②|
口②口口 |--③-|
口⑥口口 |④⑤-⑥|
①口口④ |--⑦-|


不确定度: 0

最終更新:2013年01月19日 13:18