つけまつける
きゃりーぱみゅぱみゅ

BASIC

Level: 2
BPM: 145
Notes: 191

1
口口口口 |----|
口口口口 |----|
口口口口 |----|
口口口口 |----|
2
口口口口 |----|
口口口口 |----|
口口口口 |----|
口口口口 |----|
3
口口口口 |----|
口口口口 |----|
口口口口 |----|
口口口口 |----|
4
②口口① |①---|
口口口口 |----|
口口口口 |②---|
口口口口 |----|
5
口口口口 |①---|
口①①口 |②---|
口②②口 |③---|
口③③口 |----|
6
①口口② |①---|
口口口口 |----|
口口口口 |②---|
口口口口 |----|
7
口口口口 |①---|
口①①口 |②---|
口②②口 |③---|
口③③口 |----|
8
②口口① |①---|
口口口口 |----|
口口口口 |②---|
口口口口 |----|
9
口口口口 |①---|
口①①口 |②---|
口②②口 |③---|
口③③口 |----|
10
①口口② |①---|
口口口口 |----|
口口口口 |②---|
口口口口 |----|
11
口口口口 |①---|
①口口① |----|
口②②口 |②---|
口口口口 |----|
12
口口口口 |①---|
口口口口 |----|
口口口口 |②---|
①口口② |----|
13
口③③口 |①---|
口②②口 |②---|
口①①口 |③---|
口口口口 |----|
14
口口口口 |①---|
口口口口 |----|
口口口口 |②---|
②口口① |----|
15
口③③口 |①---|
口②②口 |②---|
口①①口 |③---|
口口口口 |----|
16
①口口② |①---|
口口口口 |----|
口口口口 |②---|
口口口口 |----|
17
口口口口 |①---|
口①①口 |②---|
口②②口 |③---|
口③③口 |----|
18
②口口① |①---|
口口口口 |----|
口口口口 |②---|
口口口口 |----|
19
口口口口 |①---|
①口口① |----|
口②②口 |②---|
口口口口 |----|
20
口口口口 |①---|
口口口口 |----|
口口口口 |②---|
①①②② |----|
21
口口①口 |①---|
口②口口 |②---|
口口③口 |③---|
口口口口 |----|
22
口口口口 |①---|
口口口口 |----|
口口口口 |②---|
②②①① |----|
23
口①口口 |①---|
口口②口 |②---|
口③口口 |③---|
口口口口 |----|
24
口口口口 |①---|
口口口口 |----|
口口口口 |②---|
①①②② |----|
25
口口①口 |①---|
口②口口 |②---|
口口③口 |③---|
口口口口 |----|
26
口口口口 |①---|
口口口口 |----|
口口口口 |②---|
②②①① |----|
27
口③③口 |①---|
口②②口 |②---|
口①①口 |③---|
口口口口 |----|
28
口口口口 |①---|
①口口② |----|
口口口口 |②---|
口口口口 |----|
29
口①口口 |①---|
口口②口 |②---|
口③口口 |③---|
口口口口 |----|
30
口口口口 |①---|
①口口② |----|
口口口口 |②---|
口口口口 |----|
31
口③口口 |①---|
口口②口 |②---|
口①口口 |③---|
口口口口 |----|
32
口口口口 |①---|
①②③④ |②---|
口口口口 |③---|
口口口口 |④---|
33
口①口口 |①---|
口口②口 |②---|
口③口口 |③---|
口口口口 |----|
34
口口口口 |①---|
口口口口 |②---|
④③②① |③---|
口口口口 |④---|
35
口①口口 |①---|
口口②口 |②---|
口③口口 |③---|
口口口口 |----|
36
①②③口 |----|
口口口口 |①---|
口口口口 |②---|
口口口口 |③---|
37
口口口① |①---|
口口口口 |----|
口口口口 |----|
口口口口 |----|
38
口口口口 |----|
①②③口 |①---|
口口口口 |②---|
口口口口 |③---|
39
口口口口 |①---|
口口口① |----|
口口口口 |----|
口口口口 |----|
40
口口口口 |----|
口口口口 |①---|
口①①口 |----|
口口口口 |----|
41
口口口口 |①---|
口①①口 |----|
口口口口 |----|
口口口口 |----|
42
口①①口 |①---|
口口口口 |----|
口口口口 |----|
口口口口 |----|
43
①口口① |①---|
口口口口 |----|
口口口口 |----|
口口口口 |----|
44
②口口① |①---|
口口口口 |----|
口口口口 |②---|
口口口口 |----|
45
口口口口 |①---|
口①①口 |②---|
口②②口 |③---|
口③③口 |----|
46
①口口② |①---|
口口口口 |----|
口口口口 |②---|
口口口口 |----|
47
口口口口 |①---|
口①①口 |②---|
口②②口 |③---|
口③③口 |----|
48
②口口① |①---|
口口口口 |----|
口口口口 |②---|
口口口口 |----|
49
口口口口 |①---|
口①①口 |②---|
口②②口 |③---|
口③③口 |----|
50
①口口② |①---|
口口口口 |----|
口口口口 |②---|
口口口口 |----|
51
口口口口 |①---|
①口口① |----|
口②②口 |②---|
口口口口 |----|
52
口口口口 |①---|
口口口口 |----|
口口口口 |②---|
①口口② |----|
53
口③③口 |①---|
口②②口 |②---|
口①①口 |③---|
口口口口 |----|
54
口口口口 |①---|
口口口口 |----|
口口口口 |②---|
②口口① |----|
55
口③③口 |①---|
口②②口 |②---|
口①①口 |③---|
口口口口 |----|
56
①口口② |①---|
口口口口 |----|
口口口口 |②---|
口口口口 |----|
57
口口口口 |①---|
口①①口 |②---|
口②②口 |③---|
口③③口 |----|
58
②口口① |①---|
口口口口 |----|
口口口口 |②---|
口口口口 |----|
59
口口口口 |①---|
①口口① |----|
口②②口 |②---|
口口口口 |----|

不確定度: 0

最終更新:2014年08月01日 02:29