スリル
布袋寅泰

EXTREME

Level: 7
BPM: 174
Notes: 579

1
口口口口 |----|
口口口口 |----|
口口口口 |----|
口口口口 |----|
2
口口⑥⑥ |①-②-|
①口③口 |③-④-|
口④口② |⑤---|
口口⑤⑤ |⑥---|
3
⑥⑥口口 |①-②-|
口③口① |③-④-|
②口④口 |⑤---|
⑤⑤口口 |⑥---|
4
⑥口口⑤ |①-②-|
口②①口 |③-④-|
口④③口 |⑤---|
⑤口口⑥ |⑥---|
5
口口口口 |①---|
③⑤④② |②---|
③口⑥② |③-④-|
口①①口 |⑤-⑥-|
6
①②③④ |①-②-|
口口口口 |③-④-|
口口口口 |⑤-⑥-|
⑤⑥⑦⑧ |⑦-⑧-|
7
口⑤④③ |①-②-|
口口口② |③-④-|
口⑦⑥① |⑤-⑥-|
口口⑧口 |⑦-⑧-|
8
④口口⑧ |①-②-|
③口口⑦ |③-④-|
②口口⑥ |⑤-⑥-|
①口口⑤ |⑦-⑧-|
9
③②①口 |①-②-|
④口口口 |③-④-|
⑤口⑥口 |⑤-⑥-|
口⑦⑧口 |⑦-⑧-|
10
⑤口口④ |①-②-|
口⑥③口 |③-④-|
口②⑦口 |⑤-⑥-|
①口口⑧ |⑦-⑧-|
11
口口口口 |①-②-|
③⑦⑧④ |③-④-|
①⑤⑥② |⑤-⑥-|
口口口口 |⑦-⑧-|
12
⑧口口④ |①-②-|
⑦口口③ |③-④-|
⑥口口② |⑤-⑥-|
口①⑤口 |⑦-⑧-|
13
口②①口 |①-②-|
口④③口 |③-④-|
口⑥⑤口 |⑤-⑥-|
口⑧⑦口 |⑦-⑧-|
14
③⑤⑤③ |①-②-|
①⑦⑦① |③-④-|
④口口④ |⑤---|
②⑥⑥② |⑥-⑦-|
15
②④④② |--①-|
口口口口 |②---|
口①①口 |③-④-|
③⑤⑤③ |--⑤-|
16
②口口② |①---|
①口口① |②---|
②④口② |----|
口③口口 |③-④-|
17
⑤⑤口口 |①---|
⑤口①① |②-③-|
③口口② |--④-|
口口④④ |--⑤-|
18
口口口口 |----|
口口②口 |----|
口口①口 |----|
口口口口 |①-②-|
19
①①⑤⑤ |①---|
口口口⑤ |②-③-|
②口口③ |--④-|
④④口口 |--⑤-|
20
口口口口 |----|
口口口口 |----|
口口口口 |----|
口口口口 |----|
21
口③②口 |①-②-|
③口①② |--③-|
②①口③
口②③口

口口口④
口口⑥口
口口口口 |--④-|
⑤口口口 |⑤-⑥-|
22
①口④口 |①-②-|
口③口② |③-④-|
①口④口
口③口②

⑦⑤口口
口口⑥口
⑦⑤口口 |⑤---|
口口⑥口 |⑥-⑦-|
23
口③口① |--①-|
②⑤④口 |②---|
口③口① |③-④-|
②⑤④口 |--⑤-|
24
②口①② |①---|
口口口口 |②---|
②口①②
口口口口

口口口口
口③口口
口口④口 |----|
口口口口 |③-④-|
25
⑤口口⑤ |①---|
口口口口 |②-③-|
④②口④ |--④-|
①①③③ |--⑤-|
26
口口口口 |----|
口口①口 |----|
口②口口 |----|
口口口口 |①-②-|
27
⑤⑤⑤⑤ |①---|
口口口口 |②-③-|
④口②④ |--④-|
③③①① |--⑤-|
28
口口口口 |----|
口口口口 |----|
口口口口 |----|
口口口口 |----|
29
口④③口 |①-②-|
④①②③ |--③-|
③②①④ |--④-|
口③④口 |----|
30
①口口② |①---|
口口口口 |--②-|
口口口口 |----|
②口口① |----|
31
⑧口口⑤ |①-②-|
④口口① |③-④-|
②口口⑦ |⑤-⑥-|
⑥口口③ |⑦-⑧-|
32
口①①口 |①---|
口③③口 |--②-|
口③③口 |----|
口②②口 |③---|
33
④口口① |①-②-|
⑥口口⑦ |③-④-|
⑧口口⑤ |⑤-⑥-|
②口口③ |⑦-⑧-|
34
②口口① |①---|
口口口口 |--②-|
口口口口 |----|
①口口② |----|
35
④口口⑦ |①-②-|
⑧口口① |③-④-|
⑥口口③ |⑤-⑥-|
②口口⑤ |⑦-⑧-|
36
口②②口 |①---|
口③③口 |--②-|
口①①口 |----|
口③③口 |③---|
37
①⑤⑥② |①-②-|
③⑦⑧④ |③-④-|
①⑤⑥② |⑤-⑥-|
③⑦⑧④ |⑦-⑧-|
38
口口口口 |①---|
③口④口 |②---|
①⑤口② |③---|
口口口口 |④-⑤-|
39
③③口② |①-②-|
口口口① |--③-|
口口口口 |----|
口口口口 |----|
40
口口口口 |①-②-|
②⑤⑥④ |③-④-|
①⑦口③ |⑤---|
口口口口 |⑥-⑦-|
41
口口③③ |①--②|
口口口口 |--③-|
②口口口 |----|
口口①口 |----|
42
口口口口 |①---|
口②口口 |②---|
①④口③ |③---|
口口⑤口 |④-⑤-|
43
⑤③口口 |①--②|
口口口② |--③-|
口口④口 |--④-|
口①口口 |--⑤-|
44
口口口口 |①---|
口口口① |----|
②口口① |②---|
②口口口 |----|
45
口口口口 |①---|
口口口口 |----|
口口口口 |----|
口口①① |----|
46
口④口③ |①---|
口口⑤③ |②---|
①②②口 |③---|
①口口口 |④-⑤-|
47
③口口口 |①-②-|
③口口口 |--③-|
①口口口 |----|
口口②口 |----|
48
口⑦⑥口 |①-②-|
口口④③ |③-④-|
①②口口 |⑤---|
口⑤口口 |⑥-⑦-|
49
口口口③ |①--②|
②口口③ |--③-|
口口①口 |----|
口口口口 |----|
50
口口口口 |①---|
①口口② |②---|
①口口②
口口口口

口口④口
⑤③③口
口③③口 |③---|
口口口口 |④-⑤-|
51
②口口③ |①--②|
口④口口 |--③-|
口口⑤口 |-④--|
口口①口 |-⑤--|
52
①①口口 |①---|
口口口② |--②-|
口口口口 |③---|
③③口口 |----|
53
口口口口 |----|
口口口口 |----|
②口②口 |①---|
①口①口 |②---|
54
口口①① |①---|
②②口口 |----|
口口口口 |②---|
口口口口 |----|
55
口口口口 |①---|
口口口口 |----|
③②③② |②---|
①①①① |③---|
56
②②口① |①---|
口口③① |②---|
口④口口 |③-④-|
⑤⑤⑤⑤ |--⑤-|
57
口口口口 |----|
①口口② |----|
①口口② |①---|
口口口口 |②---|
58
口①①口 |①---|
⑤口③⑤ |②---|
口②②口 |③-④-|
口④口口 |--⑤-|
59
②口口② |----|
口口口口 |----|
口口口口 |①---|
①口口① |②---|
60
口口④口 |①-②-|
口③口⑧ |③-④-|
⑤口②⑦ |⑤-⑥-|
⑤①口⑥ |⑦-⑧-|
61
口口④① |①-②-|
口③口⑧ |③-④-|
⑤口②⑦ |⑤-⑥-|
⑤①口⑥ |⑦-⑧-|
62
①口③① |①---|
①口③口 |②---|
口口口口 |③---|
④②②④ |④---|
63
④⑤⑤③ |①-②-|
口⑥⑥口 |③-④-|
②⑦⑦① |--⑤-|
口口口口 |⑥-⑦-|
64
③⑤⑤③ |①-②-|
①⑦⑦① |③-④-|
④口口④ |⑤---|
②⑥⑥② |⑥-⑦-|
65
②④④② |--①-|
口口口口 |②---|
口①①口 |③-④-|
③⑤⑤③ |--⑤-|
66
②口口② |①---|
①口口① |②---|
②④口② |----|
口③口口 |③-④-|
67
⑤⑤口口 |①---|
⑤口①① |②-③-|
③口口② |--④-|
口口④④ |--⑤-|
68
口口口口 |----|
口口②口 |----|
口口①口 |----|
口口口口 |①-②-|
69
①①⑤⑤ |①---|
口口口⑤ |②-③-|
②口口③ |--④-|
④④口口 |--⑤-|
70
口口口口 |----|
口口口口 |----|
口口口口 |----|
口口口口 |----|
71
口③②口 |①-②-|
③口①② |--③-|
②①口③
口②③口

口口口④
口口⑥口
口口口口 |--④-|
⑤口口口 |⑤-⑥-|
72
①口④口 |①-②-|
口③口② |③-④-|
①口④口
口③口②

⑦⑤口口
口口⑥口
⑦⑤口口 |⑤---|
口口⑥口 |⑥-⑦-|
73
口③口① |--①-|
②⑤④口 |②---|
口③口① |③-④-|
②⑤④口 |--⑤-|
74
②口①② |①---|
口口口口 |②---|
②口①②
口口口口

口口口口
口③口口
口口④口 |----|
口口口口 |③-④-|
75
⑤口口⑤ |①---|
口口口口 |②-③-|
④②口④ |--④-|
①①③③ |--⑤-|
76
口口口口 |----|
口口①口 |----|
口②口口 |----|
口口口口 |①-②-|
77
⑤⑤⑤⑤ |①---|
口口口口 |②-③-|
④口②④ |--④-|
③③①① |--⑤-|
78
口口口口 |----|
口口口口 |----|
口口口口 |----|
口口口口 |----|
79
口口口④ |①-②-|
口口⑦② |--③-|
①口⑥口 |④-⑤-|
③⑤口口 |⑥-⑦-|
80
口口口口 |①---|
①口口口 |----|
①口口口 |----|
口口口口 |----|


不確定度: 0

最終更新:2013年04月06日 23:30