Vanity
Vivian

BASIC

Level: 5
BPM: 125-150
Notes: 297

BPM: 125
1
口口口口 |----|
口口口口 |----|
口口口口 |----|
口口口口
2
口口口口 |----|
口口口口 |----|
口口口口 |----|
口口口口
3
③③口口 |①---|
口口口口 |②---|
②口口口 |③---|
①口口口
4
口口口口 |----|
口口口口 |----|
口口口口 |----|
口口口口
5
口口口① |①---|
口口口② |②---|
口口口口 |③---|
口口③③
6
口口口口 |----|
口口口口 |----|
口口口口 |----|
口口口口
7
口口口口 |①---|
口口口③ |②---|
①②口③ |③---|
口口口口
8
口口口口 |----|
口口口口 |----|
口口口口 |----|
口口口口
9
口口口口 |①---|
③口②① |②---|
③口口口 |③---|
口口口口
10
口口口口 |----|
口口口口 |----|
口口口口 |----|
口口口口
11
口口口口 |①---|
③口口口 |②---|
②口口口 |③---|
①口口①
12
口口口口 |①---|
口口口③ |②---|
口口口② |③---|
①口口①
13
口③口口 |①---|
口②口口 |②---|
口①①口 |③---|
口口口口
14
口口③口 |①---|
口口②口 |②---|
口①①口 |③---|
口口口口

BPM: 150
15
口口口口 |----|
口①①口 |--①-|
口口口口 |----|
口口口口
16
口口口口 |①---|
口口口口 |--|
口①①口
口口口口
17
口口口口 |①---|
③口口口 |--②-|
②口口口 |③-|
口①①口
18
口口口口 |①---|
口口口③ |--②-|
口①①② |③-|
口口口口
19
③口口口 |①---|
②①①口 |--②-|
口口口口 |③-|
口口口口
20
口①①③ |①---|
口口口② |--②-|
口口口口 |③-|
口口口口
21
口口口口 |①---|
口①①口 |----|
口口口口 |----|
口口口口 |----|
22
口口口口 |①---|
口口口口 |----|
口①①口 |----|
口口口口 |----|
23
口口口口 |①---|
口①①口 |----|
口口口口 |----|
口口口口 |----|
24
口口口口 |----|
口口口口 |----|
口口口口 |----|
口口口口 |----|
25
口口口口 |①---|
①口口① |----|
①口口① |----|
口口口口 |----|
26
口口口口 |----|
口口口口 |----|
口口口口 |----|
口口口口 |----|
27
口口口口 |①---|
口①①口 |----|
口①①口 |----|
口口口口 |----|
28
口口口口 |----|
口口口口 |----|
口口口口 |----|
口口口口 |----|
29
口口口口 |①---|
口口口口 |----|
①①①① |----|
口口口口 |----|
30
口口口口 |----|
口口口口 |----|
口口口口 |----|
口口口口 |----|
31
口口口口 |①---|
口口口口 |--②-|
口口口口 |----|
①③③② |③---|
32
口口口口 |①---|
口口口口 |--②-|
①③③② |----|
口口口口 |③---|
33
口口口口 |①---|
①③③② |--②-|
口口口口 |----|
口口口口 |③---|
34
①③③② |①---|
口口口口 |--②-|
口口口口 |----|
口口口口 |③---|
35
口口口口 |①---|
口口口口 |--②-|
①③③② |----|
口口口口 |③---|
36
口口口口 |①---|
①③③② |--②-|
口口口口 |----|
口口口口 |③---|
37
①③③② |①---|
口口口口 |--②-|
口口口口 |----|
口口口口 |③---|
38
口口口口 |①---|
口口口口 |--②-|
①③③② |----|
口口口口 |③---|
39
口口口口 |①---|
②①①② |----|
口口口口 |②---|
口口口口 |----|
40
口口口口 |①---|
口口口口 |----|
①②②① |②---|
口口口口 |----|
41
口口口口 |①---|
③口口③ |--②-|
②口口② |----|
①口口① |③---|
42
①②②① |--①-|
口⑤④口 |--②-|
口③口口 |③--④|
口口口口 |--⑤-|
43
口③③口 |①---|
口口口口 |----|
①②②① |②---|
口口口口 |--③-|
44
口口口口 |--①-|
口①①口 |----|
口口口口 |----|
口口口口 |----|
45
口④口口 |①---|
口口③口 |②---|
口②口口 |③---|
口口①口 |④---|
46
③口①③ |①---|
口②口口 |②---|
口口口口 |③---|
口口口口 |----|
47
口口口口 |①---|
口口口口 |②---|
口①①口 |----|
口②②口 |----|
48
口口口口 |①---|
口①①口 |②---|
口②②口 |----|
口口口口 |----|
49
口①①口 |①---|
口②②口 |②---|
口口口口 |----|
口口口口 |----|
50
口口口口 |----|
口口口口 |----|
口口口口 |----|
口口口口 |----|
51
口口口口 |①---|
①①①① |----|
②②②② |--②-|
口口口口 |----|
52
口口口口 |----|
口口口口 |----|
口口口口 |----|
口口口口 |----|
53
口口口口 |①---|
①①①① |----|
②②②② |--②-|
口口口口 |----|
54
口口口口 |----|
口口口口 |----|
口口口口 |----|
口口口口 |----|
55
口口口口 |①---|
口口①② |--②-|
口口口口 |----|
口口口口
56
口口口口 |①---|
②①口口 |--②-|
口口口口 |----|
口口口口
57
口口口口 |①---|
口口口口 |--②-|
口口①② |----|
口口口口
58
口口口口 |①---|
口口口口 |--②-|
②①口口 |----|
口口口口
59
口口口口 |①---|
口②②口 |--②-|
口①①口 |----|
口口口口
60
口口口口 |①---|
①口口① |--②-|
②口口② |----|
口口口口
61
口口口口 |①---|
口②②口 |--②-|
口①①口 |----|
口口口口
62
口口口口 |①---|
①口口① |--②-|
②口口② |----|
口口口口
63
口口口口 |①---|
口口口口 |--②-|
口口②口 |----|
口①①口
64
口口口口 |①---|
口口口口 |--②-|
口②口口 |----|
口①①口
65
口口口口 |①---|
口口口口 |--②-|
口口口② |----|
①口口①
66
口口口口 |①---|
口口口口 |--②-|
②口口口 |----|
①口口①
67
口口口口 |①---|
口口②口 |--②-|
口①①口 |----|
口口口口
68
口口口口 |①---|
口②口口 |--②-|
口①①口 |----|
口口口口
69
口口口口 |①---|
口口②口 |--②-|
口①①口 |----|
口口口口
70
口口口口 |①---|
口②口口 |--②-|
口①①口 |----|
口口口口
71
口口口口 |①---|
口口口口 |--②-|
②①①② |----|
口口口口
72
口口口口 |①---|
口②②口 |--②-|
口①①口 |----|
口口口口
73
口口口口 |①---|
口口口口 |--②-|
②①①② |----|
口口口口
74
口口口口 |①---|
口②②口 |--②-|
口①①口 |----|
口口口口
75
口口口口 |①---|
②口口② |--②-|
口①①口 |----|
口口口口
76
口口口口 |①---|
口②②口 |--②-|
口①①口 |----|
口口口口
77
口口口口 |①---|
②口口② |--②-|
口①①口 |----|
口口口口
78
口口口口 |①---|
口②②口 |--②-|
口①①口 |----|
口口口口
79
口口口口 |①-②-|
口口口口 |--③-|
④口口② |④---|
③口口①
80
口口口口 |①-②-|
口口口口 |--③-|
口④②口 |④---|
口③①口
81
③口口① |①-②-|
④口口② |--③-|
口口口口 |④---|
口口口口
82
口③①口 |①-②-|
口④②口 |--③-|
口口口口 |④---|
口口口口
83
口口口口 |①-②-|
口口口口 |--③-|
④②④② |④---|
③①③①
84
③①③① |①-②-|
④②④② |--③-|
口口口口 |④---|
口口口口
85
③口口③ |①-②-|
④口口④ |--③-|
②口口② |④---|
①口口①
86
口③③口 |①-②-|
口④④口 |--③-|
②⑤⑤② |④-⑤-|
①口口①


不確定度: 0

最終更新:2013年03月29日 20:39