attack in the minor key
Mr.T

BASIC

Level: 4
BPM: 164
Notes: 243

1
口口口口 |----|
口口口口 |----|
口口口口 |----|
口口口口 |----|
2
口①①口 |①---|
口②②口 |----|
口口口口 |②---|
口口口口 |----|
3
口口口口 |①---|
口口口口 |----|
口①①口 |②---|
口②②口 |----|
4
①口口① |①---|
②口口② |----|
口口口口 |②---|
口口口口 |----|
5
口口口口 |①---|
口口口口 |----|
①口口① |②---|
②口口② |----|
6
口口口口 |----|
口口口口 |----|
口口口口 |----|
口口口口 |----|
7
①口①口 |----|
口②口② |①---|
口口口口 |----|
口口口口 |②---|
8
口口口口 |----|
①口①口 |①---|
口②口② |----|
口口口口 |②---|
9
口口口口 |----|
口口口口 |①---|
①口①口 |----|
口②口② |②---|
10
口口口口 |----|
口口口口 |①---|
口①口① |----|
②口②口 |②---|
11
口口口口 |----|
口①口① |①---|
②口②口 |----|
口口口口 |②---|
12
口①口① |----|
②口②口 |①---|
口口口口 |----|
口口口口 |②---|
13
①口①口 |----|
口②口② |①---|
口口口口 |----|
口口口口 |②---|
14
口口口口 |----|
口口口口 |----|
口口口口 |----|
口口口口 |----|
15
口②①口 |①---|
口口口口 |----|
口①②口 |②---|
口口口口 |----|
16
口口口口 |①---|
口①①口 |----|
口口口口 |②---|
口②③口 |③---|
17
口口口口 |①---|
口口②口 |----|
口①口口 |②---|
口口口口 |----|
18
口口口口 |----|
口口口口 |----|
口①②口 |①---|
口口口口 |②---|
19
口②①口 |①---|
口①②口 |----|
口口口口 |②---|
口口口口 |----|
20
口口口口 |①---|
①口口① |----|
口口口口 |②---|
口②③口 |③---|
21
口口口口 |①---|
口口②口 |----|
口①口口 |②---|
口口口口 |----|
22
口口口口 |----|
口口口口 |----|
口口口口 |----|
口口口口 |----|
23
口②①口 |①---|
口口口口 |----|
口①②口 |②---|
口口口口 |----|
24
口口口口 |①---|
口①①口 |----|
口口口口 |②---|
口②③口 |③---|
25
口口口口 |①---|
口③④口 |②---|
口①②口 |③---|
口口口口 |④---|
26
口①口口 |①---|
口口口口 |----|
口②③口 |②---|
口口口口 |③---|
27
口②①口 |①---|
口①②口 |----|
口口口口 |②---|
口口口口 |----|
28
口口口口 |①---|
①口口① |----|
口口口口 |②---|
口②③口 |③---|
29
口口口口 |①---|
口口口口 |----|
口①口口 |----|
口口口口 |----|
30
口口口口 |----|
口口口口 |----|
口②②口 |①---|
口①①口 |②---|
31
②②口口 |①---|
口①①口 |----|
口口口口 |②---|
口口口口 |----|
32
口口②② |①---|
口①①口 |----|
口口口口 |②---|
口口口口 |----|
33
口①口口 |①---|
口口②口 |②---|
口③口口 |③---|
口口④口 |④---|
34
口口口口 |①---|
口口③口 |----|
口②口口 |②---|
口①口口 |③---|
35
①口口② |①---|
口口口口 |----|
口口口口 |②---|
口口口口 |----|
36
口①②口 |①---|
口口口口 |----|
口口口口 |②---|
口口口口 |----|
37
口口口口 |①---|
口①①口 |----|
口②②口 |②---|
口口口口 |----|
38
口口口口 |①---|
口口口口 |----|
②口口② |②---|
口①①口 |----|
39
口④④口 |-①--|
口③③口 |②--③|
口②②口 |--④-|
口①①口 |----|
40
①口口口 |①---|
口②③口 |----|
口口口口 |②---|
口口口口 |③---|
41
口①口② |①---|
口口口口 |----|
口口口口 |②---|
口口口口 |----|
42
口口口口 |①---|
口②③① |----|
口口口口 |②---|
口口口口 |③---|
43
口口口口 |①---|
口口口口 |----|
口①口口 |②---|
口口②口 |----|
44
口口①口 |①---|
口②口口 |②---|
口口③口 |③---|
口④口口 |④---|
45
口口口口 |①---|
口口③口 |②---|
口②口口 |③---|
口口①口 |----|
46
①口口② |①---|
①口口② |----|
口口口口 |②---|
口口口口 |----|
47
口口口口 |①---|
口①①口 |②---|
口②②口 |③---|
口③③口 |----|
48
①口口口 |①---|
口②③口 |----|
口口口口 |②---|
口口口口 |③---|
49
口①口② |①---|
口口口口 |----|
口口口口 |②---|
口口口口 |----|
50
口口口口 |①---|
口②③① |----|
口口口口 |②---|
口口口口 |③---|
51
口①②口 |①---|
口口口口 |②---|
口口口口 |----|
口口口口 |----|
52
口口①口 |①---|
口②口口 |②---|
口口③口 |③---|
口④口口 |④---|
53
口口口口 |①---|
口口③口 |②---|
口②口口 |③---|
口口①口 |----|
54
①口口② |①---|
①口口② |----|
口口口口 |②---|
口口口口 |----|
55
口②②口 |①---|
口口口口 |----|
口①①口 |②---|
口口口口 |----|
56
口口口口 |----|
口口口口 |----|
口口口口 |----|
口口口口 |----|
57
口口口口 |①---|
口口口口 |----|
口口口口 |----|
口①①口 |----|
58
口口口口 |①---|
口口口口 |----|
口①①口 |----|
口口口口 |----|
59
口口口口 |①---|
口①①口 |----|
口口口口 |----|
口口口口 |----|
60
①口口① |①---|
口口口口 |----|
口②③口 |②---|
口口口口 |③---|
61
口②①口 |①---|
口①②口 |----|
口口口口 |②---|
口口口口 |----|
62
口口口口 |①---|
①口口① |----|
口口口口 |②---|
口②③口 |③---|
63
口口口口 |①---|
口口②口 |----|
口①口口 |②---|
口口口口 |----|
64
口口口口 |----|
口口口口 |----|
口口口口 |----|
口口口口 |----|
65
口②①口 |①---|
口口口口 |----|
口①②口 |②---|
口口口口 |----|
66
口口口口 |①---|
口①①口 |----|
口口口口 |②---|
口②③口 |③---|
67
口口口口 |①---|
口③④口 |②---|
口①②口 |③---|
口口口口 |④---|
68
口①口口 |①---|
口口口口 |----|
口②③口 |②---|
口口口口 |③---|
69
口②①口 |①---|
口①②口 |----|
口口口口 |②---|
口口口口 |----|
70
口口口口 |①---|
①口口① |----|
口口口口 |②---|
口②③口 |③---|
71
口口口口 |①---|
口口口口 |----|
口①口口 |----|
口口口口 |----|
72
口口口口 |----|
口口口口 |----|
口②②口 |①---|
口①①口 |②---|
73
①①①① |①---|
口口口口 |----|
口口口口 |----|
口口口口 |----|
74
口口口口 |①---|
①①①① |----|
口③③口 |②---|
口②②口 |③---|
75
①口口① |①---|
口口口口 |----|
口口口口 |----|
口口口口 |----|


不确定度: 0

最終更新:2013年01月12日 23:09